<?xml version="1.0" standalone="no"?>
<!DOCTYPE svg PUBLIC "-//W3C//DTD SVG 1.1//EN" "http://www.w3.org/Graphics/SVG/1.1/DTD/svg11.dtd" >
<svg xmlns="http://www.w3.org/2000/svg" xmlns:xlink="http://www.w3.org/1999/xlink" version="1.1">
<metadata></metadata>
<defs>
<font id="heroic_condensedmedium" horiz-adv-x="679" >
<font-face units-per-em="2048" ascent="1536" descent="-512" />
<missing-glyph horiz-adv-x="348" />
<glyph horiz-adv-x="0" />
<glyph unicode="&#xd;" horiz-adv-x="681" />
<glyph unicode=" "  horiz-adv-x="348" />
<glyph unicode="&#x09;" horiz-adv-x="348" />
<glyph unicode="&#xa0;" horiz-adv-x="348" />
<glyph unicode="!" horiz-adv-x="397" d="M102 1434h193l-41 -963h-111zM119 0v180h160v-180h-160z" />
<glyph unicode="&#x22;" horiz-adv-x="577" d="M82 1454h172l-37 -430h-98zM324 1454h172l-37 -430h-99z" />
<glyph unicode="#" horiz-adv-x="720" d="M82 602v88h111l18 359h-109v88h115l16 297h97l-17 -297h123l17 297h98l-16 -297h104v-88h-111l-18 -359h108v-88h-114l-15 -295h-98l17 295h-123l-17 -295h-96l14 295h-104zM289 690h123l20 359h-123z" />
<glyph unicode="$" horiz-adv-x="704" d="M123 446v134h147v-136q0 -106 82 -106t82 106v86q0 55 -23.5 95.5t-57.5 62t-74.5 48t-74.5 53t-57.5 80.5t-23.5 128v35q0 213 182 236v166h98v-166q178 -20 179 -236v-112h-148v114q0 106 -82 106.5t-82 -106.5v-37q0 -55 23.5 -95t57.5 -61.5t75 -48t75 -53t57.5 -79 t23.5 -123.5v-91q0 -104 -40 -164.5t-139 -72.5v-209h-98v209q-100 12 -141 71.5t-41 165.5z" />
<glyph unicode="%" horiz-adv-x="929" d="M102 1087v168q0 102 36 150.5t128 48.5q90 0 127 -48t37 -151v-168q0 -104 -37 -151t-127 -47q-92 0 -128 47t-36 151zM113 0l596 1434h106l-596 -1434h-106zM207 1085q0 -57 12 -78.5t47 -21.5t47.5 21.5t12.5 78.5v172q0 57 -12.5 79t-47.5 22t-47 -21.5t-12 -79.5 v-172zM500 178v168q0 102 35.5 150.5t128.5 48.5q90 0 126.5 -48t36.5 -151v-168q0 -104 -36.5 -152.5t-126.5 -48.5q-92 0 -128 48.5t-36 152.5zM604 176q0 -57 12.5 -78.5t47 -21.5t47 21.5t12.5 78.5v172q0 55 -12.5 76.5t-47 21.5t-47 -21.5t-12.5 -76.5v-172z" />
<glyph unicode="&#x26;" horiz-adv-x="813" d="M123 225v295q0 158 98 207q-98 49 -98 203v272q0 121 56.5 186.5t195.5 65.5q248 0 248 -252v-158h-156v158q0 109 -92 109t-92 -109v-301q0 -104 92 -104h356v-144h-104v-407q0 -96 100 -96v-150q-125 0 -176 72q-49 -92 -184 -92q-133 0 -188.5 62t-55.5 183zM283 231 q0 -108 92 -108t92 108v422h-92q-92 0 -92 -102v-320z" />
<glyph unicode="'" horiz-adv-x="315" d="M72 1454h172l-37 -430h-98z" />
<glyph unicode="(" horiz-adv-x="512" d="M102.5 715q-0.5 383 190.5 780h117q-174 -414 -174 -780t174 -776h-117q-190 393 -190.5 776z" />
<glyph unicode=")" horiz-adv-x="512" d="M102 -61q174 410 174 776t-174 780h117q190 -397 190 -780t-190 -776h-117z" />
<glyph unicode="*" horiz-adv-x="712" d="M61 1184l45 143l228 -129l-53 256h151l-53 -256l227 129l45 -143l-260 -29l195 -176l-123 -88l-107 237l-106 -237l-123 88l195 176z" />
<glyph unicode="+" horiz-adv-x="798" d="M102 516v115h240v239h115v-239h239v-115h-239v-240h-115v240h-240z" />
<glyph unicode="," horiz-adv-x="321" d="M82 180h168l-74 -360h-94v360z" />
<glyph unicode="-" horiz-adv-x="512" d="M82 516v115h348v-115h-348z" />
<glyph unicode="." horiz-adv-x="323" d="M82 0v180h160v-180h-160z" />
<glyph unicode="/" horiz-adv-x="569" d="M61 -61l328 1556h119l-328 -1556h-119z" />
<glyph unicode="0" horiz-adv-x="708" d="M102 231v971q0 121 56.5 186.5t196 65.5t195.5 -65.5t56 -186.5v-971q0 -121 -56 -186t-195.5 -65t-196 65.5t-56.5 185.5zM262 231q0 -109 92 -108.5t92 108.5v971q0 109 -92 109t-92 -109v-971z" />
<glyph unicode="1" horiz-adv-x="552" d="M72 0v154h125v1034h-125v110q78 0 115.5 39t37.5 97h131v-1280h125v-154h-409z" />
<glyph unicode="2" horiz-adv-x="663" d="M92 0v205q0 137 35 242.5t84 170t98 124t84 136t35 173.5v161q0 98 -88 98.5t-88 -98.5v-168h-160v168q0 242 248 242t248 -242v-157q0 -121 -35 -213t-84 -153.5t-98 -122t-84 -148.5t-35 -203v-61h340v-154h-500z" />
<glyph unicode="3" horiz-adv-x="696" d="M92 231v179h156v-179q0 -109 88 -108.5t88 108.5v326q0 94 -88 94h-76v148h76q84 0 84 94v319q0 98 -84 98.5t-84 -98.5v-168h-156v168q0 117 53.5 179.5t186.5 62.5t186 -62.5t53 -179.5v-303q0 -139 -100 -182q109 -47 109 -182v-314q0 -121 -54.5 -186t-193.5 -65 q-137 0 -190.5 65.5t-53.5 185.5z" />
<glyph unicode="4" horiz-adv-x="675" d="M51 303v164l266 967h218v-983h90v-148h-90v-303h-160v303h-324zM182 451h193v282q0 102 3 275.5t3 230.5z" />
<glyph unicode="5" horiz-adv-x="708" d="M102 231v179h160v-179q0 -109 92 -108.5t92 108.5v406q0 96 -92 96q-72 0 -110 -61h-127l37 762h432v-154h-291l-21 -449q57 39 121 39q113 0 162 -56t49 -177v-406q0 -121 -56 -186t-195.5 -65t-196 65.5t-56.5 185.5z" />
<glyph unicode="6" horiz-adv-x="718" d="M113 231v971q0 252 251.5 252t251.5 -252v-158h-159v158q0 109 -92.5 109t-92.5 -109v-414q55 49 136 50q111 0 159.5 -60.5t48.5 -179.5v-367q0 -252 -251.5 -251.5t-251.5 251.5zM272 231q0 -109 92.5 -108.5t92.5 108.5v369q0 45 -23.5 72.5t-68.5 27.5 q-43 0 -68 -26.5t-25 -71.5v-371z" />
<glyph unicode="7" horiz-adv-x="561" d="M41 1280v154h479v-127q-109 -367 -140.5 -603.5t-31.5 -703.5h-174q0 373 44 674t151 606h-328z" />
<glyph unicode="8" horiz-adv-x="708" d="M102 231v314q0 133 113 182q-102 43 -102 182v303q0 115 54 178.5t187 63.5t188.5 -63.5t55.5 -178.5v-303q0 -137 -104 -182q113 -49 112 -182v-314q0 -121 -56 -186t-195.5 -65t-196 65t-56.5 186zM262 231q0 -109 92 -108.5t92 108.5v318q0 109 -92 109t-92 -109v-318 zM268 889q0 -96 86 -96q88 0 88 96v323q0 98 -88 99q-86 -1 -86 -99v-323z" />
<glyph unicode="9" horiz-adv-x="708" d="M102 231v179h160v-179q0 -108 92 -108t92 108v435q-55 -49 -135 -50q-111 0 -160 60.5t-49 179.5v346q0 252 252 252t252 -252v-971q0 -252 -252 -251.5t-252 251.5zM262 854q0 -45 23.5 -72.5t68.5 -27.5q43 0 67.5 26.5t24.5 71.5v350q0 109 -92 109t-92 -109v-348z " />
<glyph unicode=":" horiz-adv-x="364" d="M102 0v180h160v-180h-160zM102 635v180h160v-180h-160z" />
<glyph unicode=";" horiz-adv-x="362" d="M102 180h168l-73 -360h-95v360zM102 635v180h160v-180h-160z" />
<glyph unicode="&#x3c;" horiz-adv-x="618" d="M82 717l328 778h127l-328 -778l328 -778h-127z" />
<glyph unicode="=" horiz-adv-x="737" d="M102 360v115h533v-115h-533zM102 672v114h533v-114h-533z" />
<glyph unicode="&#x3e;" horiz-adv-x="618" d="M82 -61l328 778l-328 778h127l328 -778l-328 -778h-127z" />
<glyph unicode="?" horiz-adv-x="692" d="M102 1065v137q0 123 53.5 187.5t190.5 64.5t190.5 -64.5t53.5 -187.5v-127q0 -100 -17.5 -161.5t-44 -94.5t-53 -65.5t-48.5 -102t-26 -180.5h-110q-6 137 6 223t33.5 124t44 64.5t39 70.5t16.5 118v131q0 53 -17.5 81t-66.5 28t-66.5 -28t-17.5 -81v-137h-160zM272 0 v180h160v-180h-160z" />
<glyph unicode="@" horiz-adv-x="1077" d="M102 260v504q0 485 436.5 485t436.5 -485v-504q0 -485 -436.5 -485t-436.5 485zM209 260q0 -84 14.5 -148.5t49 -119.5t102 -86t164 -31t164 31t102.5 86t49 119.5t14 148.5v504q0 84 -14 148.5t-49 119.5t-102.5 86t-164 31t-164 -31t-102 -86t-49 -119.5t-14.5 -148.5 v-504zM348 264v137q0 98 53.5 151.5t204.5 96.5v111q0 82 -67.5 82t-67.5 -82v-47h-115v49q0 88 41 134t142 46q104 0 143 -46t39 -136v-662h-84l-27 41q-33 -59 -110 -59q-84 0 -118 45t-34 139zM463 264q0 -86 74 -86q69 0 69 86v295q-82 -27 -112.5 -62.5t-30.5 -95.5 v-137z" />
<glyph unicode="A" horiz-adv-x="675" d="M51 0l187 1434h200l187 -1434h-162l-33 311h-184l-33 -311h-162zM260 459h154l-76 739z" />
<glyph unicode="B" horiz-adv-x="733" d="M123 0v1434h254q141 0 192.5 -53.5t51.5 -170.5v-301q0 -139 -99 -182q109 -41 109 -186v-299q0 -121 -51.5 -181.5t-190.5 -60.5h-266zM283 154h96q51 0 71.5 22.5t20.5 71.5v299q0 104 -92 104h-96v-497zM283 799h90q92 0 92 104v283q0 49 -20.5 71.5t-71.5 22.5h-90 v-481z" />
<glyph unicode="C" horiz-adv-x="684" d="M102 231v971q0 121 56.5 186.5t195.5 65.5q248 0 248 -252v-158h-156v158q0 109 -92 109t-92 -109v-971q0 -109 92 -109t92 109v179h156v-179q0 -251 -246 -251h-2q-139 0 -195.5 65.5t-56.5 185.5z" />
<glyph unicode="D" horiz-adv-x="743" d="M123 0v1434h258q139 0 194.5 -63.5t55.5 -184.5v-938q0 -121 -53.5 -184.5t-192.5 -63.5h-262zM283 154h96q51 0 71.5 22.5t20.5 71.5v938q0 49 -20.5 71.5t-71.5 22.5h-96v-1126z" />
<glyph unicode="E" horiz-adv-x="624" d="M123 0v1434h420v-154h-260v-481h225v-148h-225v-497h260v-154h-420z" />
<glyph unicode="F" horiz-adv-x="593" d="M123 0v1434h409v-154h-249v-481h215v-148h-215v-651h-160z" />
<glyph unicode="G" horiz-adv-x="718" d="M113 231v971q0 121 56 186.5t196 65.5q248 0 247 -252v-158h-155v158q0 109 -92.5 109t-92.5 -109v-971q0 -109 92 -109v0q93 1 93 109v420h-92v148h251v-568q0 -121 -56 -186t-195.5 -65t-195.5 65.5t-56 185.5z" />
<glyph unicode="H" horiz-adv-x="757" d="M123 0v1434h160v-635h192v635h160v-1434h-160v651h-192v-651h-160z" />
<glyph unicode="I" horiz-adv-x="405" d="M123 0v1434h160v-1434h-160z" />
<glyph unicode="J" horiz-adv-x="667" d="M61 227v183h160v-183q0 -104 82 -104t82 104v1207h160v-1207q0 -121 -53.5 -184t-188.5 -63q-242 0 -242 247z" />
<glyph unicode="K" horiz-adv-x="702" d="M123 0v1434h160l-2 -641l202 641h176l-249 -709l262 -725h-174l-217 657l2 -657h-160z" />
<glyph unicode="L" horiz-adv-x="532" d="M123 0v1434h160v-1280h209v-154h-369z" />
<glyph unicode="M" horiz-adv-x="1005" d="M123 0v1434h199l180 -1160l182 1160h199v-1434h-148v489q0 188 13 613l-170 -1102h-150l-170 1104v-46q0 -91 5 -260q7 -218 7 -309v-489h-147z" />
<glyph unicode="N" horiz-adv-x="811" d="M123 0v1434h153l275 -1035q-16 317 -16 566v469h153v-1434h-153l-275 1034q16 -389 16 -565v-469h-153z" />
<glyph unicode="O" horiz-adv-x="708" d="M102 231v971q0 121 56.5 186.5t196 65.5t195.5 -65.5t56 -186.5v-971q0 -121 -56 -186t-195.5 -65t-196 65.5t-56.5 185.5zM262 231q0 -109 91 -109h1q92 0 92 109v971q0 109 -92 109t-92 -109v-971z" />
<glyph unicode="P" horiz-adv-x="698" d="M123 0v1434h258q139 0 192.5 -63.5t53.5 -184.5v-328q0 -119 -55.5 -181.5t-194.5 -62.5h-94v-614h-160zM283 762h92q51 0 71.5 23.5t20.5 72.5v328q0 49 -20.5 71.5t-71.5 22.5h-92v-518z" />
<glyph unicode="Q" horiz-adv-x="708" d="M102 231v971q0 121 56.5 186.5t196 65.5t195.5 -65.5t56 -186.5v-971q0 -219 -184 -245q2 -41 19.5 -58.5t64.5 -17.5h53l-24 -98h-29q-213 0 -219 174q-184 27 -185 245zM262 231q0 -109 91 -109h1q92 1 92 109v971q0 109 -92 109t-92 -109v-971z" />
<glyph unicode="R" horiz-adv-x="735" d="M123 0v1434h262q137 0 189.5 -62.5t52.5 -185.5v-328q0 -197 -148 -233l226 -625h-179l-198 614h-45v-614h-160zM283 762h92q51 0 71.5 23.5t20.5 72.5v328q0 49 -20.5 71.5t-71.5 22.5h-92v-518z" />
<glyph unicode="S" horiz-adv-x="684" d="M92 231v179h160v-179q0 -109 90 -109t90 109v175q0 113 -35 183t-85 107t-100 75t-85 112.5t-35 191.5v127q0 121 55.5 186.5t194.5 65.5t194.5 -65.5t55.5 -186.5v-158h-160v158q0 109 -90 109t-90 -109v-121q0 -80 25.5 -136t62.5 -82.5t82 -63.5t82 -75t62.5 -119 t25.5 -193v-181q0 -121 -55.5 -186t-194.5 -65t-194.5 65.5t-55.5 185.5z" />
<glyph unicode="T" horiz-adv-x="573" d="M41 1280v154h491v-154h-165v-1280h-160v1280h-166z" />
<glyph unicode="U" horiz-adv-x="729" d="M113 231v1203h159v-1203q0 -109 92 -109t93 109v1203h159v-1203q0 -121 -56 -186t-195.5 -65t-195.5 65.5t-56 185.5z" />
<glyph unicode="V" horiz-adv-x="675" d="M51 1434h164l123 -1141l123 1141h164l-193 -1434h-188z" />
<glyph unicode="W" horiz-adv-x="1105" d="M61 1434h162l107 -1139l139 1139h168l137 -1139l109 1139h161l-172 -1434h-190l-129 1120l-129 -1120h-191z" />
<glyph unicode="X" horiz-adv-x="665" d="M41 0l209 743l-195 691h170l107 -478l108 478h170l-198 -691l213 -743h-170l-123 530l-121 -530h-170z" />
<glyph unicode="Y" horiz-adv-x="624" d="M41 1434h168l102 -619l105 619h168l-193 -854v-580h-160v580z" />
<glyph unicode="Z" horiz-adv-x="577" d="M61 1280v154h447v-103l-272 -1177h280v-154h-453v102l273 1178h-275z" />
<glyph unicode="[" horiz-adv-x="524" d="M143 -246v1741h279v-115h-148v-1511h148v-115h-279z" />
<glyph unicode="\" horiz-adv-x="569" d="M61 1495h119l328 -1556h-119z" />
<glyph unicode="]" horiz-adv-x="524" d="M102 -131h148v1511h-148v115h279v-1741h-279v115z" />
<glyph unicode="^" horiz-adv-x="483" d="M82 1044l111 410h98l110 -410h-98l-61 261l-62 -261h-98z" />
<glyph unicode="_" horiz-adv-x="757" d="M102 0v135h553v-135h-553z" />
<glyph unicode="`" horiz-adv-x="376" d="M82 1393h147l66 -267h-86z" />
<glyph unicode="a" horiz-adv-x="649" d="M82 217v139q0 115 70.5 182.5t253.5 127.5v145q0 102 -82 102t-82 -106v-45h-150v47q0 235 230 235h2q129 0 181 -60t52 -173v-811h-90l-37 53q-40 -73 -138 -73h-3h-2q-205 0 -205 237zM233 217q0 -106 86.5 -106t86.5 106v334q-100 -37 -136.5 -78t-36.5 -115v-141z " />
<glyph unicode="b" horiz-adv-x="669" d="M102 0v1454h152v-471q45 61 127 61q104 0 150.5 -57t46.5 -180v-590q0 -123 -46.5 -180t-152.5 -57q-102 0 -148 75l-38 -55h-91zM254 217q0 -106 86 -106t86 106v590q0 106 -86 106t-86 -106v-590z" />
<glyph unicode="c" horiz-adv-x="645" d="M92 217v590q0 117 53.5 177t184.5 60t182 -60t51 -177v-115h-147v115q0 106 -86 106t-86 -106v-590q0 -106 86 -106t86 106v135h147v-135q0 -117 -51 -177t-182 -60t-184.5 60t-53.5 177z" />
<glyph unicode="d" d="M102 217v590q0 123 46.5 180t150.5 57q82 0 127 -61v471h152v-1454h-91l-38 55q-44 -75 -145 -75h-3q-106 0 -152.5 57t-46.5 180zM254 217q0 -106 86 -106t86 106v590q0 106 -86 106t-86 -106v-590z" />
<glyph unicode="e" horiz-adv-x="655" d="M92 217v590q0 117 53.5 177t184.5 60t182 -60t51 -177v-307h-319v-283q0 -106 86 -106t86 106v135h147v-135q0 -117 -51 -177t-182 -60t-184.5 60t-53.5 177zM244 614h172v193q0 106 -86 106t-86 -106v-193z" />
<glyph unicode="f" horiz-adv-x="481" d="M41 889v135h92v215q0 119 51.5 177.5t182.5 58.5q47 0 84 -13v-133q-31 14 -80 14q-47 0 -66.5 -24.5t-19.5 -79.5v-215h141v-135h-141v-889h-152v889h-92z" />
<glyph unicode="g" horiz-adv-x="661" d="M61 -109q0 154 119 203q-51 27 -51 80q0 55 57 80q-104 49 -104 213v336q0 117 53 179t184 62q57 0 97 -12q41 121 145 121q35 0 60 -8v-119q-29 10 -68 10q-45 0 -74 -35q78 -55 78 -198v-336q0 -117 -53.5 -177.5t-184.5 -60.5q-78 -2 -78 -54q0 -54 70 -56h8 q141 0 202 -58.5t61 -169.5v-14q0 -102 -62.5 -163.5t-197.5 -61.5q-260 0 -261 225v14zM209 -96v-13q0 -111 111 -111h2q112 1 112 111v13q0 110 -112.5 110t-112.5 -110zM233 461q0 -111 86.5 -111t86.5 111v344q0 55 -19.5 81.5t-67 26.5t-67 -26.5t-19.5 -81.5v-344z " />
<glyph unicode="h" d="M102 0v1454h152v-471q45 61 127 61q104 0 150.5 -57t46.5 -180v-807h-152v807q0 106 -86 106t-86 -106v-807h-152z" />
<glyph unicode="i" horiz-adv-x="356" d="M102 0v1024h152v-1024h-152zM102 1176v180h152v-180h-152z" />
<glyph unicode="j" horiz-adv-x="356" d="M-63 -203q31 -14 77 -14q49 0 68.5 24.5t19.5 79.5v1137h152v-1137q0 -119 -51 -177t-183 -58q-47 0 -83 12v133zM102 1176v180h152v-180h-152z" />
<glyph unicode="k" horiz-adv-x="628" d="M102 0v1454h152v-868l168 438h166l-209 -494l229 -530h-168l-186 467v-467h-152z" />
<glyph unicode="l" horiz-adv-x="356" d="M102 0v1454h152v-1454h-152z" />
<glyph unicode="m" horiz-adv-x="995" d="M102 0v1024h91l38 -55q50 75 151 75h3q113 0 156 -73q58 73 161 73h3q102 0 145 -57t43 -172v-815h-152v809q0 104 -79 104q-88 0 -89 -102v-811h-151v809q0 104 -80 104q-88 0 -88 -104v-809h-152z" />
<glyph unicode="n" d="M102 0v1024h91l38 -55q50 75 145 75h3q106 0 152.5 -57t46.5 -180v-807h-152v807q0 106 -86 106t-86 -106v-807h-152z" />
<glyph unicode="o" horiz-adv-x="659" d="M92 217v590q0 117 53.5 177t184.5 60t184 -60t53 -177v-590q0 -117 -53 -177t-184 -60t-184.5 60t-53.5 177zM244 217q0 -106 86 -106t86 106v590q0 106 -86 106t-86 -106v-590z" />
<glyph unicode="p" d="M102 -328v1352h91l38 -55q44 75 145 75h3q106 0 152.5 -57t46.5 -180v-590q0 -123 -46.5 -180t-150.5 -57q-82 0 -127 61v-369h-152zM254 217q0 -106 86 -106t86 106v590q0 106 -86 106t-86 -106v-590z" />
<glyph unicode="q" horiz-adv-x="669" d="M92 217v590q0 123 46 180t153 57q102 0 147 -75l39 55h90v-1352h-151v369q-45 -61 -127 -61q-104 0 -150.5 57t-46.5 180zM244 217q0 -106 86 -106t86 106v590q0 106 -86 106t-86 -106v-590z" />
<glyph unicode="r" horiz-adv-x="448" d="M102 0v1024h109l35 -51q56 82 162 82v-160q-16 2 -31 2q-123 0 -123 -152v-745h-152z" />
<glyph unicode="s" horiz-adv-x="624" d="M82 217v135h147v-137q0 -104 82 -104t82 104v78q0 66 -31.5 111t-77.5 72.5t-92.5 59t-78 91t-31.5 147.5v33q0 115 52 176t177 61q127 0 179.5 -61t52.5 -176v-115h-150v117q0 104 -82 104t-82 -104v-35q0 -66 33 -111t78 -73.5t91 -59t79 -89t33 -142.5v-82 q0 -117 -52.5 -177t-179.5 -60t-178 60t-51 177z" />
<glyph unicode="t" horiz-adv-x="503" d="M41 889v135h102v266l152 41v-307h158v-135h-158v-674q0 -57 16.5 -80.5t63.5 -23.5q39 0 78 16v-131q-37 -16 -86 -16q-127 0 -175.5 57t-48.5 178v674h-102z" />
<glyph unicode="u" d="M102 217v807h152v-807q0 -106 86 -106t86 106v807h152v-1024h-91l-38 55q-44 -75 -145 -75h-3q-106 0 -152.5 57t-46.5 180z" />
<glyph unicode="v" horiz-adv-x="614" d="M41 1024h156l110 -803l111 803h155l-182 -1024h-168z" />
<glyph unicode="w" horiz-adv-x="983" d="M51 1024h156l94 -811l113 811h155l113 -811l94 811h156l-158 -1024h-176l-106 772l-107 -772h-176z" />
<glyph unicode="x" horiz-adv-x="606" d="M31 0l196 516l-186 508h158l104 -346l105 346h157l-188 -508l198 -516h-157l-115 354l-115 -354h-157z" />
<glyph unicode="y" horiz-adv-x="614" d="M31 -201q39 -14 86 -14q41 0 64.5 25.5t33.5 83.5l18 106l-192 1024h158l108 -750l109 750h157l-208 -1137q-23 -129 -78 -182t-172 -53q-57 0 -84 12v135z" />
<glyph unicode="z" horiz-adv-x="536" d="M61 0v96l244 793h-235v135h397v-96l-242 -793h250v-135h-414z" />
<glyph unicode="{" horiz-adv-x="569" d="M102 567v115h70q94 0 94 84q0 117 -52 277.5t-52 256.5q0 102 61.5 148.5t192.5 46.5h51v-115h-49q-68 0 -94.5 -23.5t-26.5 -84.5q0 -80 40 -242t40 -256q0 -117 -76 -149q76 -37 76 -150q0 -94 -40 -256t-40 -242q0 -61 26.5 -84.5t94.5 -23.5h49v-115h-51 q-131 0 -192.5 46t-61.5 149q0 96 52 256.5t52 277.5q0 84 -94 84h-70z" />
<glyph unicode="|" horiz-adv-x="405" d="M143 -246v1741h119v-1741h-119z" />
<glyph unicode="}" horiz-adv-x="569" d="M102 -131h50q68 0 94 23.5t26 84.5q0 80 -39.5 242t-39.5 256q0 113 75 150q-76 33 -75 149q0 94 39.5 256t39.5 242q0 61 -26.5 84.5t-93.5 23.5h-50v115h52q131 0 192.5 -46t61.5 -149q0 -96 -52.5 -256.5t-52.5 -277.5q0 -84 94 -84h70v-115h-70q-94 0 -94 -84 q0 -117 52.5 -277.5t52.5 -256.5q0 -102 -61.5 -148.5t-192.5 -46.5h-52v115z" />
<glyph unicode="~" horiz-adv-x="649" d="M86 1282q0 90 27.5 131t97.5 41q57 0 107.5 -43t80.5 -43q47 0 47 66h82q0 -90 -27.5 -131t-97.5 -41q-57 0 -107 43t-81 43q-47 0 -47 -66h-82z" />
<glyph unicode="&#xa1;" horiz-adv-x="397" d="M102 -410l41 963h111l41 -963h-193zM119 844v180h160v-180h-160z" />
<glyph unicode="&#xa2;" horiz-adv-x="716" d="M123 442v590q0 215 188 236v166h99v-166q102 -12 143 -71.5t41 -164.5v-114h-148v114q0 106 -86 106.5t-86 -106.5v-590q0 -106 86 -106t86 106v136h148v-136q0 -106 -41 -164.5t-143 -70.5v-207h-99v207q-104 12 -146 71.5t-42 163.5z" />
<glyph unicode="&#xa3;" horiz-adv-x="788" d="M82 0v154q104 0 104 96v430h-104v90h104v432q0 121 56.5 186.5t195.5 65.5q248 0 248 -252v-158h-156v158q0 109 -92 109t-92 -109v-432h152v-90h-152v-430q0 -96 100 -96h240v-154h-240q-135 0 -184 82q-49 -82 -180 -82z" />
<glyph unicode="&#xa4;" horiz-adv-x="659" d="M72 0l92 332q-49 55 -49 172v467q0 115 51 174l-80 289h147l58 -230q37 4 61.5 4t61.5 -4l59 230h148l-82 -289q51 -59 51 -174v-467q0 -117 -49 -172l94 -332h-148l-69 272q-29 -6 -66 -6t-65 6l-68 -272h-147zM266 504q0 -106 86 -106.5t86 106.5v467q0 106 -86 106 t-86 -106v-467z" />
<glyph unicode="&#xa5;" horiz-adv-x="706" d="M82 1434h168l102 -627l105 627h168l-193 -854v-27h158v-90h-158v-127h158v-90h-158v-246h-160v246h-153v90h153v127h-153v90h153v27z" />
<glyph unicode="&#xa6;" horiz-adv-x="405" d="M143 -246v774h119v-774h-119zM143 721v774h119v-774h-119z" />
<glyph unicode="&#xa7;" horiz-adv-x="692" d="M102 41h160v-137q0 -53 17.5 -81t66.5 -28t66.5 27.5t17.5 81.5v69q0 76 -24.5 125t-60.5 68.5t-79 46.5t-78.5 57.5t-60.5 104.5t-25 184v68q0 172 97 233q-96 82 -97 277v65q0 123 53.5 187.5t190.5 64.5t190.5 -64.5t53.5 -187.5v-137h-160v137q0 53 -17.5 81 t-66.5 28t-66.5 -28t-17.5 -81v-69q0 -78 24.5 -127.5t60.5 -67.5t79 -45t79 -56.5t60.5 -103t24.5 -186.5v-68q0 -172 -98 -235q98 -84 98 -275v-65q0 -123 -53.5 -187.5t-190.5 -64.5t-190.5 64.5t-53.5 187.5v137zM262 567q0 -174 109 -245q59 39 59 137v80 q0 100 -28.5 153t-82.5 88q-57 -39 -57 -133v-80z" />
<glyph unicode="&#xa8;" horiz-adv-x="532" d="M82 1159v180h143v-180h-143zM307 1159v180h144v-180h-144z" />
<glyph unicode="&#xa9;" horiz-adv-x="1093" d="M102 465v504q0 485 444.5 485t444.5 -485v-504q0 -485 -444.5 -485t-444.5 485zM209 465q0 -84 15.5 -148.5t50 -120t104.5 -86t168 -30.5t167.5 30.5t104.5 86t50.5 120t15.5 148.5v504q0 84 -15.5 148.5t-50.5 119.5t-104.5 86t-167.5 31t-168 -31t-104.5 -86 t-50 -119.5t-15.5 -148.5v-504zM367 467v500q0 90 38.5 136t143.5 46q100 0 141 -46t41 -134v-111h-115v109q0 82 -67.5 82t-67.5 -82v-500q0 -82 67.5 -82t67.5 82v129h115v-131q0 -88 -41 -134t-141 -46q-104 0 -143 46t-39 136z" />
<glyph unicode="&#xaa;" horiz-adv-x="577" d="M102 776v137q0 98 53.5 151.5t204.5 96.5v111q0 82 -67.5 82t-67.5 -82v-47h-114v49q0 88 41 134t141 46q104 0 143 -46t39 -136v-662h-84l-26 41q-33 -59 -111 -59q-84 0 -118 45t-34 139zM117 393v94h358v-94h-358zM217 776q0 -86 74 -86q69 0 69 86v295 q-82 -27 -112.5 -62.5t-30.5 -95.5v-137z" />
<glyph unicode="&#xab;" horiz-adv-x="823" d="M82 512l217 379h147l-213 -379l213 -379h-147zM377 512l217 379h147l-213 -379l213 -379h-147z" />
<glyph unicode="&#xac;" horiz-adv-x="737" d="M102 631v114h533v-344h-115v230h-418z" />
<glyph unicode="&#xad;" horiz-adv-x="512" d="M82 516v115h348v-115h-348z" />
<glyph unicode="&#xae;" horiz-adv-x="1093" d="M102 465v504q0 485 444.5 485t444.5 -485v-504q0 -485 -444.5 -485t-444.5 485zM209 465q0 -84 15.5 -148.5t50 -120t104.5 -86t168 -30.5t167.5 30.5t104.5 86t50.5 120t15.5 148.5v504q0 84 -15.5 148.5t-50.5 119.5t-104.5 86t-167.5 31t-168 -31t-104.5 -86 t-50 -119.5t-15.5 -148.5v-504zM367 301v836h188q100 0 138 -45t38 -134v-143q0 -143 -104 -168l147 -346h-117l-139 338h-37v-338h-114zM481 745h70q66 0 65 70v143q0 68 -65 68h-70v-281z" />
<glyph unicode="&#xaf;" horiz-adv-x="512" d="M82 1143v114h348v-114h-348z" />
<glyph unicode="&#xb0;" horiz-adv-x="503" d="M82 1232.5q0 108.5 37 165t133 56.5t133 -56.5t37 -165t-37 -164.5t-133 -56t-133 56t-37 164.5zM180 1233q0 -127 72 -127t72 127t-72 127t-72 -127z" />
<glyph unicode="&#xb1;" horiz-adv-x="798" d="M102 184v115h594v-115h-594zM102 635v115h240v239h115v-239h239v-115h-239v-240h-115v240h-240z" />
<glyph unicode="&#xb4;" horiz-adv-x="376" d="M82 1126l65 267h148l-127 -267h-86z" />
<glyph unicode="&#xb5;" d="M102 -328v1352h152v-807q0 -106 86 -106t86 106v807h152v-807q0 -123 -46.5 -180t-150.5 -57q-82 0 -127 61v-369h-152z" />
<glyph unicode="&#xb6;" horiz-adv-x="770" d="M102 633v553q0 121 53.5 184.5t192.5 63.5h299v-1762h-160v717h-135q-139 0 -194.5 62.5t-55.5 181.5z" />
<glyph unicode="&#xb7;" horiz-adv-x="364" d="M102 483v181h160v-181h-160z" />
<glyph unicode="&#xb8;" horiz-adv-x="442" d="M80 -348l24 94h64q70 0 70 51t-74 51h-31l41 152h82l-20 -76q125 -20 124 -133q0 -139 -184 -139h-96z" />
<glyph unicode="&#xba;" horiz-adv-x="569" d="M102 393v94h365v-94h-365zM102 772v500q0 90 39 136t143.5 46t143.5 -46t39 -136v-500q0 -90 -39 -136t-143.5 -46t-143.5 46t-39 136zM217 772q0 -82 67.5 -82t67.5 82v500q0 82 -67.5 82t-67.5 -82v-500z" />
<glyph unicode="&#xbb;" horiz-adv-x="823" d="M82 133l213 379l-213 379h147l217 -379l-217 -379h-147zM377 133l213 379l-213 379h147l217 -379l-217 -379h-147z" />
<glyph unicode="&#xbc;" horiz-adv-x="512" d="M113 686v62h286v-62h-286zM137 127v70l113 405h90v-414h39v-61h-39v-127h-66v127h-137zM170 831v64h53v436h-53v45q63 0 63 58h56v-539h53v-64h-172zM193 188h81v119q0 131 2 213z" />
<glyph unicode="&#xbd;" horiz-adv-x="512" d="M113 686v62h286v-62h-286zM152 0v66q0 70 22.5 126t48 85.5t48 72.5t22.5 90v70q0 41 -37 41t-37 -41v-72h-67v72q0 100 104 100q102 0 102 -100v-68q0 -92 -69.5 -189t-69.5 -183v-7h141v-63h-208zM170 831v64h53v436h-53v45q63 0 63 58h56v-539h53v-64h-172z" />
<glyph unicode="&#xbe;" horiz-adv-x="512" d="M113 686v62h286v-62h-286zM137 127v70l113 405h90v-414h39v-61h-39v-127h-66v127h-137zM154 928v76h65v-76q0 -45 37 -45t37 45v137q0 41 -37 41h-33v61h33q35 0 35 39v135q0 41 -35 41q-37 0 -37 -41v-71h-65v71q0 100 102 101q100 0 100 -101v-129q0 -59 -43 -75 q45 -18 45 -76v-133q0 -104 -102 -104.5t-102 104.5zM193 188h81v119q0 131 2 213z" />
<glyph unicode="&#xbf;" horiz-adv-x="692" d="M102 -51q0 100 17.5 161.5t44 94.5t53.5 65.5t48.5 102t25.5 180.5h110q6 -137 -6 -223t-33.5 -124t-44 -64.5t-39 -70.5t-16.5 -118v-131q0 -53 17.5 -81t66.5 -28t66.5 28t17.5 81v137h160v-137q0 -123 -53.5 -187.5t-190.5 -64.5t-190.5 64.5t-53.5 187.5v127z M260 844v180h160v-180h-160z" />
<glyph unicode="&#xc0;" horiz-adv-x="675" d="M51 0l187 1434h200l187 -1434h-162l-33 311h-184l-33 -311h-162zM170 1802h147l66 -266h-86zM260 459h154l-76 739z" />
<glyph unicode="&#xc1;" horiz-adv-x="675" d="M51 0l187 1434h200l187 -1434h-162l-33 311h-184l-33 -311h-162zM260 459h154l-76 739zM297 1536l65 266h148l-127 -266h-86z" />
<glyph unicode="&#xc2;" horiz-adv-x="675" d="M51 0l187 1434h200l187 -1434h-162l-33 311h-184l-33 -311h-162zM162 1536l112 266h127l113 -266h-108l-68 135l-68 -135h-108zM260 459h154l-76 739z" />
<glyph unicode="&#xc3;" horiz-adv-x="675" d="M51 0l187 1434h200l187 -1434h-162l-33 311h-184l-33 -311h-162zM102 1556q0 94 30 137.5t106 43.5q55 0 107 -39t83 -39q51 0 51 57h92q0 -92 -30.5 -136t-104.5 -44q-57 0 -108.5 39t-81.5 39q-51 0 -51 -58h-93zM260 459h154l-76 739z" />
<glyph unicode="&#xc4;" horiz-adv-x="675" d="M51 0l187 1434h200l187 -1434h-162l-33 311h-184l-33 -311h-162zM154 1536v180h143v-180h-143zM260 459h154l-76 739zM379 1536v180h143v-180h-143z" />
<glyph unicode="&#xc5;" horiz-adv-x="675" d="M51 0l187 1434h200l187 -1434h-162l-33 311h-184l-33 -311h-162zM197 1671q0 158 141 158t141 -158q0 -156 -141 -155.5t-141 155.5zM260 459h154l-76 739zM291 1671q0 -74 47 -74t47 74q0 76 -47 76t-47 -76z" />
<glyph unicode="&#xc6;" horiz-adv-x="972" d="M51 0l324 1434h516v-154h-260v-481h225v-148h-225v-497h260v-154h-420v311h-195l-63 -311h-162zM307 459h164v794z" />
<glyph unicode="&#xc7;" horiz-adv-x="684" d="M102 231v971q0 121 56.5 186.5t195.5 65.5q248 0 248 -252v-158h-156v158q0 109 -92 109t-92 -109v-971q0 -109 92 -108.5t92 108.5v179h156v-179q0 -231 -211 -249l-14 -58q125 -20 125 -133q0 -139 -185 -139h-96l25 94h63q70 0 70 51t-74 51h-31l35 134 q-207 18 -207 249z" />
<glyph unicode="&#xc8;" horiz-adv-x="624" d="M123 0v1434h420v-154h-260v-481h225v-148h-225v-497h260v-154h-420zM205 1802h147l66 -266h-86z" />
<glyph unicode="&#xc9;" horiz-adv-x="624" d="M123 0v1434h420v-154h-260v-481h225v-148h-225v-497h260v-154h-420zM289 1536l65 266h148l-127 -266h-86z" />
<glyph unicode="&#xca;" horiz-adv-x="624" d="M123 0v1434h420v-154h-260v-481h225v-148h-225v-497h260v-154h-420zM156 1536l112 266h127l113 -266h-109l-67 135l-68 -135h-108z" />
<glyph unicode="&#xcb;" horiz-adv-x="624" d="M123 0v1434h420v-154h-260v-481h225v-148h-225v-497h260v-154h-420zM150 1536v180h143v-180h-143zM375 1536v180h143v-180h-143z" />
<glyph unicode="&#xcc;" horiz-adv-x="405" d="M35 1802h147l66 -266h-86zM123 0v1434h160v-1434h-160z" />
<glyph unicode="&#xcd;" horiz-adv-x="405" d="M123 0v1434h160v-1434h-160zM162 1536l65 266h148l-127 -266h-86z" />
<glyph unicode="&#xce;" horiz-adv-x="405" d="M27 1536l112 266h127l113 -266h-109l-67 135l-68 -135h-108zM123 0v1434h160v-1434h-160z" />
<glyph unicode="&#xcf;" horiz-adv-x="405" d="M18 1536v180h144v-180h-144zM123 0v1434h160v-1434h-160zM244 1536v180h143v-180h-143z" />
<glyph unicode="&#xd0;" horiz-adv-x="743" d="M29 668v114h94v652h258q139 0 194.5 -63.5t55.5 -184.5v-938q0 -121 -53.5 -184.5t-192.5 -63.5h-262v668h-94zM283 154h96q51 0 71.5 22.5t20.5 71.5v938q0 49 -20.5 71.5t-71.5 22.5h-96v-498h94v-114h-94v-514z" />
<glyph unicode="&#xd1;" horiz-adv-x="811" d="M123 0v1434h153l275 -1035q-16 317 -16 566v469h153v-1434h-153l-275 1034q16 -389 16 -565v-469h-153zM170 1556q0 94 29.5 137.5t105.5 43.5q55 0 107.5 -39t83.5 -39q51 0 51 57h92q0 -92 -30.5 -136t-104.5 -44q-57 0 -108.5 39t-82.5 39q-51 0 -51 -58h-92z" />
<glyph unicode="&#xd2;" horiz-adv-x="708" d="M102 231v971q0 121 56.5 186.5t196 65.5t195.5 -65.5t56 -186.5v-971q0 -121 -56 -186t-195.5 -65t-196 65.5t-56.5 185.5zM188 1802h148l65 -266h-86zM262 231q0 -109 92 -108.5t92 108.5v971q0 109 -92 109t-92 -109v-971z" />
<glyph unicode="&#xd3;" horiz-adv-x="708" d="M102 231v971q0 121 56.5 186.5t196 65.5t195.5 -65.5t56 -186.5v-971q0 -121 -56 -186t-195.5 -65t-196 65.5t-56.5 185.5zM262 231q0 -109 92 -108.5t92 108.5v971q0 109 -92 109t-92 -109v-971zM309 1536l66 266h147l-127 -266h-86z" />
<glyph unicode="&#xd4;" horiz-adv-x="708" d="M102 231v971q0 121 56.5 186.5t196 65.5t195.5 -65.5t56 -186.5v-971q0 -121 -56 -186t-195.5 -65t-196 65.5t-56.5 185.5zM178 1536l113 266h127l112 -266h-108l-68 135l-67 -135h-109zM262 231q0 -109 92 -108.5t92 108.5v971q0 109 -92 109t-92 -109v-971z" />
<glyph unicode="&#xd5;" horiz-adv-x="708" d="M102 231v971q0 121 56.5 186.5t196 65.5t195.5 -65.5t56 -186.5v-971q0 -121 -56 -186t-195.5 -65t-196 65.5t-56.5 185.5zM119 1556q0 94 29.5 137.5t105.5 43.5q55 0 107.5 -39t82.5 -39q51 0 52 57h92q0 -92 -30.5 -136t-104.5 -44q-57 0 -108.5 39t-82.5 39 q-51 0 -51 -58h-92zM262 231q0 -109 92 -108.5t92 108.5v971q0 109 -92 109t-92 -109v-971z" />
<glyph unicode="&#xd6;" horiz-adv-x="708" d="M102 231v971q0 121 56.5 186.5t196 65.5t195.5 -65.5t56 -186.5v-971q0 -121 -56 -186t-195.5 -65t-196 65.5t-56.5 185.5zM170 1536v180h143v-180h-143zM262 231q0 -109 92 -108.5t92 108.5v971q0 109 -92 109t-92 -109v-971zM395 1536v180h144v-180h-144z" />
<glyph unicode="&#xd7;" horiz-adv-x="749" d="M102 379l195 194l-195 195l78 78l195 -195l194 195l78 -78l-194 -195l194 -194l-78 -78l-194 195l-195 -195z" />
<glyph unicode="&#xd8;" horiz-adv-x="708" d="M102 231v971q0 121 56.5 186.5t195.5 65.5q6 0 19.5 -1t19.5 -1l4 43h68l-6 -55q147 -43 147 -238v-971q0 -121 -56 -186t-196 -65q-8 0 -20 1t-19 1l-4 -43h-67l4 55q-145 41 -146 237zM252 231q0 -47 12 -71l115 1157q-4 0 -12.5 1t-12.5 1q-102 0 -102 -117v-971z M328 117q8 -2 26 -2q102 0 103 116v971q0 43 -15 70z" />
<glyph unicode="&#xd9;" horiz-adv-x="729" d="M113 231v1203h159v-1203q0 -109 92.5 -108.5t92.5 108.5v1203h159v-1203q0 -121 -56 -186t-195.5 -65t-195.5 65.5t-56 185.5zM186 1802h148l65 -266h-86z" />
<glyph unicode="&#xda;" horiz-adv-x="729" d="M113 231v1203h159v-1203q0 -109 92.5 -108.5t92.5 108.5v1203h159v-1203q0 -121 -56 -186t-195.5 -65t-195.5 65.5t-56 185.5zM324 1536l65 266h148l-127 -266h-86z" />
<glyph unicode="&#xdb;" horiz-adv-x="729" d="M113 231v1203h159v-1203q0 -109 92.5 -108.5t92.5 108.5v1203h159v-1203q0 -121 -56 -186t-195.5 -65t-195.5 65.5t-56 185.5zM188 1536l113 266h127l113 -266h-109l-67 135l-68 -135h-109z" />
<glyph unicode="&#xdc;" horiz-adv-x="729" d="M113 231v1203h159v-1203q0 -109 92.5 -108.5t92.5 108.5v1203h159v-1203q0 -121 -56 -186t-195.5 -65t-195.5 65.5t-56 185.5zM180 1536v180h144v-180h-144zM406 1536v180h143v-180h-143z" />
<glyph unicode="&#xdd;" horiz-adv-x="624" d="M41 1434h168l102 -619l105 619h168l-193 -854v-580h-160v580zM276 1536l66 266h147l-127 -266h-86z" />
<glyph unicode="&#xde;" horiz-adv-x="698" d="M123 0v1434h160v-289h98q139 0 192.5 -63.5t53.5 -184.5v-328q0 -119 -55.5 -181t-194.5 -62h-94v-326h-160zM283 473h92q51 0 71.5 23.5t20.5 72.5v328q0 49 -20.5 71.5t-71.5 22.5h-92v-518z" />
<glyph unicode="&#xdf;" horiz-adv-x="684" d="M102 0v1239q0 236 234 236q238 0 237 -236v-238q0 -80 -23.5 -118.5t-78.5 -63.5q61 -27 91 -67.5t30 -114.5v-410q0 -123 -50 -185t-188 -62q-10 0 -43 4v131q25 -4 39 -4q55 0 72.5 24.5t17.5 79.5v434q0 41 -29.5 67.5t-76.5 26.5h-10v148h10q88 0 88 94v256 q0 102 -86 102q-82 0 -82 -102v-1241h-152z" />
<glyph unicode="&#xe0;" horiz-adv-x="649" d="M82 217v139q0 115 70.5 182.5t253.5 127.5v145q0 102 -82 102t-82 -106v-45h-150v47q0 236 232 235q129 0 181 -60t52 -173v-811h-90l-37 53q-41 -74 -141 -73q-207 -1 -207 237zM217 1393h148l65 -267h-86zM233 217q0 -106 86.5 -106t86.5 106v334q-100 -37 -136.5 -78 t-36.5 -115v-141z" />
<glyph unicode="&#xe1;" horiz-adv-x="649" d="M82 217v139q0 115 70.5 182.5t253.5 127.5v145q0 102 -82 102t-82 -106v-45h-150v47q0 236 232 235q129 0 181 -60t52 -173v-811h-90l-37 53q-41 -74 -141 -73q-207 -1 -207 237zM233 217q0 -106 86.5 -106t86.5 106v334q-100 -37 -136.5 -78t-36.5 -115v-141zM264 1126 l66 267h147l-127 -267h-86z" />
<glyph unicode="&#xe2;" horiz-adv-x="649" d="M82 217v139q0 115 70.5 182.5t253.5 127.5v145q0 102 -82 102t-82 -106v-45h-150v47q0 236 232 235q129 0 181 -60t52 -173v-811h-90l-37 53q-41 -74 -141 -73q-207 -1 -207 237zM147 1126l113 267h127l113 -267h-109l-67 136l-68 -136h-109zM233 217q0 -106 86.5 -106 t86.5 106v334q-100 -37 -136.5 -78t-36.5 -115v-141z" />
<glyph unicode="&#xe3;" horiz-adv-x="649" d="M82 217v139q0 115 70.5 182.5t253.5 127.5v145q0 102 -82 102t-82 -106v-45h-150v47q0 236 232 235q129 0 181 -60t52 -173v-811h-90l-37 53q-41 -74 -141 -73q-207 -1 -207 237zM90 1167q0 94 30 137.5t105 43.5q55 0 107.5 -39t83.5 -39q51 0 51 57h92 q0 -92 -30.5 -136t-104.5 -44q-57 0 -108.5 39t-82.5 39q-51 0 -51 -58h-92zM233 217q0 -106 86.5 -106t86.5 106v334q-100 -37 -136.5 -78t-36.5 -115v-141z" />
<glyph unicode="&#xe4;" horiz-adv-x="649" d="M82 217v139q0 115 70.5 182.5t253.5 127.5v145q0 102 -82 102t-82 -106v-45h-150v47q0 236 232 235q129 0 181 -60t52 -173v-811h-90l-37 53q-41 -74 -141 -73q-207 -1 -207 237zM139 1159v180h144v-180h-144zM233 217q0 -106 86.5 -106t86.5 106v334 q-100 -37 -136.5 -78t-36.5 -115v-141zM365 1159v180h143v-180h-143z" />
<glyph unicode="&#xe5;" horiz-adv-x="649" d="M82 217v139q0 115 70.5 182.5t253.5 127.5v145q0 102 -82 102t-82 -106v-45h-150v47q0 236 232 235q129 0 181 -60t52 -173v-811h-90l-37 53q-41 -74 -141 -73q-207 -1 -207 237zM182 1280q0 158 141.5 158t141.5 -158q0 -156 -141.5 -156t-141.5 156zM233 217 q0 -106 86.5 -106t86.5 106v334q-100 -37 -136.5 -78t-36.5 -115v-141zM276 1280q0 -74 47.5 -74t47.5 74q0 76 -47.5 76t-47.5 -76z" />
<glyph unicode="&#xe6;" horiz-adv-x="966" d="M82 217v139q0 115 70.5 182.5t253.5 127.5v145q0 102 -82 102t-82 -106v-45h-150v47q0 236 232 235q106 0 161 -51q51 51 166 51q131 0 182.5 -60t51.5 -177v-307h-320v-283q0 -106 86 -106t86 106v135h148v-135q0 -117 -51.5 -177t-182.5 -60q-115 0 -166 51 q-55 -51 -166 -51q-131 0 -184 60t-53 177zM233 217q0 -106 86.5 -106t86.5 106v334q-100 -37 -136.5 -78t-36.5 -115v-141zM565 614h172v193q0 106 -86 106t-86 -106v-193z" />
<glyph unicode="&#xe7;" horiz-adv-x="645" d="M92 217v590q0 117 53.5 177t184.5 60t182 -60t51 -177v-115h-147v115q0 106 -86 106t-86 -106v-590q0 -106 86 -106t86 106v135h147v-135q0 -106 -42 -165.5t-148 -69.5l-15 -58q125 -20 125 -133q0 -139 -184 -139h-96l24 94h64q70 0 69.5 51t-73.5 51h-31l35 134 q-109 8 -154 68.5t-45 166.5z" />
<glyph unicode="&#xe8;" horiz-adv-x="634" d="M82 217v590q0 117 53 177t184.5 60t182.5 -60t51 -177v-307h-320v-283q0 -106 86.5 -106t86.5 106v135h147v-135q0 -117 -51 -177t-182.5 -60t-184.5 60t-53 177zM211 1393h147l66 -267h-86zM233 614h173v193q0 106 -86.5 106t-86.5 -106v-193z" />
<glyph unicode="&#xe9;" horiz-adv-x="634" d="M82 217v590q0 117 53 177t184.5 60t182.5 -60t51 -177v-307h-320v-283q0 -106 86.5 -106t86.5 106v135h147v-135q0 -117 -51 -177t-182.5 -60t-184.5 60t-53 177zM233 614h173v193q0 106 -86.5 106t-86.5 -106v-193zM266 1126l66 267h147l-127 -267h-86z" />
<glyph unicode="&#xea;" horiz-adv-x="634" d="M82 217v590q0 117 53 177t184.5 60t182.5 -60t51 -177v-307h-320v-283q0 -106 86.5 -106t86.5 106v135h147v-135q0 -117 -51 -177t-182.5 -60t-184.5 60t-53 177zM141 1126l113 267h127l113 -267h-109l-68 136l-67 -136h-109zM233 614h173v193q0 106 -86.5 106 t-86.5 -106v-193z" />
<glyph unicode="&#xeb;" horiz-adv-x="634" d="M82 217v590q0 117 53 177t184.5 60t182.5 -60t51 -177v-307h-320v-283q0 -106 86.5 -106t86.5 106v135h147v-135q0 -117 -51 -177t-182.5 -60t-184.5 60t-53 177zM133 1159v180h143v-180h-143zM233 614h173v193q0 106 -86.5 106t-86.5 -106v-193zM358 1159v180h144v-180 h-144z" />
<glyph unicode="&#xec;" horiz-adv-x="356" d="M0 1393h147l66 -267h-86zM102 0v1024h152v-1024h-152z" />
<glyph unicode="&#xed;" horiz-adv-x="356" d="M102 0v1024h152v-1024h-152zM133 1126l66 267h147l-127 -267h-86z" />
<glyph unicode="&#xee;" horiz-adv-x="356" d="M2 1126l113 267h127l112 -267h-108l-68 136l-67 -136h-109zM102 0v1024h152v-1024h-152z" />
<glyph unicode="&#xef;" horiz-adv-x="356" d="M-6 1159v180h143v-180h-143zM102 0v1024h152v-1024h-152zM219 1159v180h143v-180h-143z" />
<glyph unicode="&#xf0;" d="M102 231v574q0 240 199 239q74 0 125 -51q-8 111 -57 221l-111 -36l-37 98l96 33q-51 80 -110 145h170q41 -47 76 -100l110 39l37 -99l-96 -32q74 -160 74 -342v-689q0 -252 -238 -251.5t-238 251.5zM254 227q0 -109 86 -108.5t86 108.5v584q0 100 -86 100 q-43 0 -64.5 -27.5t-21.5 -72.5v-584z" />
<glyph unicode="&#xf1;" d="M102 0v1024h91l38 -55q51 76 148 75q106 0 152.5 -57t46.5 -180v-807h-152v807q0 106 -86 106t-86 -106v-807h-152zM104 1167q0 94 30 137.5t106 43.5q55 0 107 -39t83 -39q51 0 51 57h92q0 -92 -30.5 -136t-104.5 -44q-57 0 -108 39t-82 39q-51 0 -51 -58h-93z" />
<glyph unicode="&#xf2;" horiz-adv-x="659" d="M92 217v590q0 117 53.5 177t184.5 60t184 -60t53 -177v-590q0 -117 -53 -177t-184 -60t-184.5 60t-53.5 177zM223 1393h148l65 -267h-86zM244 217q0 -106 86 -106t86 106v590q0 106 -86 106t-86 -106v-590z" />
<glyph unicode="&#xf3;" horiz-adv-x="659" d="M92 217v590q0 117 53.5 177t184.5 60t184 -60t53 -177v-590q0 -117 -53 -177t-184 -60t-184.5 60t-53.5 177zM244 217q0 -106 86 -106t86 106v590q0 106 -86 106t-86 -106v-590zM281 1126l65 267h148l-127 -267h-86z" />
<glyph unicode="&#xf4;" horiz-adv-x="659" d="M92 217v590q0 117 53.5 177t184.5 60t184 -60t53 -177v-590q0 -117 -53 -177t-184 -60t-184.5 60t-53.5 177zM154 1126l112 267h127l113 -267h-109l-67 136l-68 -136h-108zM244 217q0 -106 86 -106t86 106v590q0 106 -86 106t-86 -106v-590z" />
<glyph unicode="&#xf5;" horiz-adv-x="659" d="M92 217v590q0 117 53.5 177t184.5 60t184 -60t53 -177v-590q0 -117 -53 -177t-184 -60t-184.5 60t-53.5 177zM94 1167q0 94 30 137.5t105 43.5q55 0 107.5 -39t83.5 -39q51 0 51 57h92q0 -92 -30.5 -136t-104.5 -44q-57 0 -108.5 39t-81.5 39q-51 0 -52 -58h-92zM244 217 q0 -106 86 -106t86 106v590q0 106 -86 106t-86 -106v-590z" />
<glyph unicode="&#xf6;" horiz-adv-x="659" d="M92 217v590q0 117 53.5 177t184.5 60t184 -60t53 -177v-590q0 -117 -53 -177t-184 -60t-184.5 60t-53.5 177zM145 1159v180h144v-180h-144zM244 217q0 -106 86 -106t86 106v590q0 106 -86 106t-86 -106v-590zM371 1159v180h143v-180h-143z" />
<glyph unicode="&#xf7;" horiz-adv-x="798" d="M102 516v115h594v-115h-594zM319 225v181h160v-181h-160zM319 741v181h160v-181h-160z" />
<glyph unicode="&#xf8;" horiz-adv-x="659" d="M92 217v590q0 117 53.5 177t184.5 60q23 0 55 -4l8 45h58l-11 -57q127 -43 127 -221v-590q0 -117 -53 -177t-184 -60q-20 0 -58 4l-6 -45h-57l8 57q-125 41 -125 221zM223 217q0 -51 17 -84l127 795q-14 6 -37 6q-106 0 -107 -127v-590zM291 94q25 -4 39 -4 q106 0 106 127v590q0 51 -18 82z" />
<glyph unicode="&#xf9;" d="M102 217v807h152v-807q0 -106 86 -106t86 106v807h152v-1024h-91l-38 55q-45 -76 -148 -75q-106 0 -152.5 57t-46.5 180zM233 1393h148l65 -267h-86z" />
<glyph unicode="&#xfa;" d="M102 217v807h152v-807q0 -106 86 -106t86 106v807h152v-1024h-91l-38 55q-45 -76 -148 -75q-106 0 -152.5 57t-46.5 180zM283 1126l65 267h148l-127 -267h-86z" />
<glyph unicode="&#xfb;" d="M102 217v807h152v-807q0 -106 86 -106t86 106v807h152v-1024h-91l-38 55q-45 -76 -148 -75q-106 0 -152.5 57t-46.5 180zM164 1126l112 267h127l113 -267h-108l-68 136l-68 -136h-108z" />
<glyph unicode="&#xfc;" d="M102 217v807h152v-807q0 -106 86 -106t86 106v807h152v-1024h-91l-38 55q-45 -76 -148 -75q-106 0 -152.5 57t-46.5 180zM156 1159v180h143v-180h-143zM381 1159v180h143v-180h-143z" />
<glyph unicode="&#xfd;" horiz-adv-x="614" d="M31 -201q39 -14 86 -14q41 0 64.5 25.5t33.5 83.5l18 106l-192 1024h158l108 -750l109 750h157l-208 -1137q-23 -129 -78 -182t-172 -53q-57 0 -84 12v135zM252 1126l65 267h148l-127 -267h-86z" />
<glyph unicode="&#xfe;" d="M102 -328v1782h152v-471q45 61 127 61q104 0 150.5 -57t46.5 -180v-590q0 -123 -46.5 -180t-150.5 -57q-82 0 -127 61v-369h-152zM254 217q0 -106 86 -106t86 106v590q0 106 -86 106t-86 -106v-590z" />
<glyph unicode="&#xff;" horiz-adv-x="614" d="M31 -201q39 -14 86 -14q41 0 64.5 25.5t33.5 83.5l18 106l-192 1024h158l108 -750l109 750h157l-208 -1137q-23 -129 -78 -182t-172 -53q-57 0 -84 12v135zM123 1159v180h143v-180h-143zM348 1159v180h144v-180h-144z" />
<glyph unicode="&#x152;" horiz-adv-x="948" d="M102 231v971q0 121 56.5 186.5t195.5 65.5q57 0 109 -20h403v-154h-260v-481h225v-148h-225v-497h260v-154h-403q-47 -20 -109 -20q-139 0 -195.5 65.5t-56.5 185.5zM262 231q0 -109 92 -108.5t92 94.5v985q0 109 -92 109t-92 -109v-971z" />
<glyph unicode="&#x153;" horiz-adv-x="978" d="M92 217v590q0 117 53.5 177t184.5 60q106 0 162 -55q51 55 161 55q131 0 182.5 -60t51.5 -177v-307h-320v-283q0 -106 86 -106t86 106v135h148v-135q0 -117 -51.5 -177t-182.5 -60q-111 0 -161 55q-55 -55 -162 -55q-131 0 -184.5 60t-53.5 177zM244 217q0 -106 86 -106 t86 106v590q0 106 -86 106t-86 -106v-590zM567 614h172v193q0 106 -86 106t-86 -106v-193z" />
<glyph unicode="&#x178;" horiz-adv-x="624" d="M41 1434h168l102 -619l105 619h168l-193 -854v-580h-160v580zM127 1536v180h143v-180h-143zM352 1536v180h144v-180h-144z" />
<glyph unicode="&#x2c6;" horiz-adv-x="516" d="M82 1126l113 267h127l112 -267h-108l-68 136l-68 -136h-108z" />
<glyph unicode="&#x2dc;" horiz-adv-x="632" d="M82 1167q0 94 29.5 137.5t105.5 43.5q55 0 107.5 -39t83.5 -39q51 0 51 57h92q0 -92 -30.5 -136t-104.5 -44q-57 0 -108.5 39t-82.5 39q-51 0 -51 -58h-92z" />
<glyph unicode="&#x2000;" horiz-adv-x="914" />
<glyph unicode="&#x2001;" horiz-adv-x="1829" />
<glyph unicode="&#x2002;" horiz-adv-x="914" />
<glyph unicode="&#x2003;" horiz-adv-x="1829" />
<glyph unicode="&#x2004;" horiz-adv-x="609" />
<glyph unicode="&#x2005;" horiz-adv-x="457" />
<glyph unicode="&#x2006;" horiz-adv-x="304" />
<glyph unicode="&#x2007;" horiz-adv-x="304" />
<glyph unicode="&#x2008;" horiz-adv-x="228" />
<glyph unicode="&#x2009;" horiz-adv-x="365" />
<glyph unicode="&#x200a;" horiz-adv-x="101" />
<glyph unicode="&#x2010;" horiz-adv-x="512" d="M82 516v115h348v-115h-348z" />
<glyph unicode="&#x2011;" horiz-adv-x="512" d="M82 516v115h348v-115h-348z" />
<glyph unicode="&#x2012;" horiz-adv-x="512" d="M82 516v115h348v-115h-348z" />
<glyph unicode="&#x2013;" horiz-adv-x="716" d="M82 516v115h553v-115h-553z" />
<glyph unicode="&#x2014;" horiz-adv-x="1044" d="M82 532v82h881v-82h-881z" />
<glyph unicode="&#x2018;" horiz-adv-x="327" d="M78 1454h168v-430h-90z" />
<glyph unicode="&#x2019;" horiz-adv-x="321" d="M82 1024v430h168l-78 -430h-90z" />
<glyph unicode="&#x201a;" horiz-adv-x="368" d="M102 -205v430h168l-77 -430h-91z" />
<glyph unicode="&#x201c;" horiz-adv-x="563" d="M82 1454h168v-430h-90zM313 1454h168v-430h-90z" />
<glyph unicode="&#x201d;" horiz-adv-x="563" d="M82 1024v430h168l-78 -430h-90zM313 1024v430h168l-78 -430h-90z" />
<glyph unicode="&#x201e;" horiz-adv-x="595" d="M98 -205v430h168l-78 -430h-90zM330 -205v430h168l-78 -430h-90z" />
<glyph unicode="&#x2022;" horiz-adv-x="512" d="M82 579.5q0 71.5 51 123t123 51.5t123 -51.5t51 -123t-51 -122.5t-123 -51t-123 51t-51 122.5z" />
<glyph unicode="&#x2026;" horiz-adv-x="970" d="M102 0v180h160v-180h-160zM406 0v180h159v-180h-159zM709 0v180h159v-180h-159z" />
<glyph unicode="&#x202f;" horiz-adv-x="365" />
<glyph unicode="&#x2039;" horiz-adv-x="528" d="M82 512l217 379h147l-213 -379l213 -379h-147z" />
<glyph unicode="&#x203a;" horiz-adv-x="528" d="M82 133l213 379l-213 379h147l217 -379l-217 -379h-147z" />
<glyph unicode="&#x205f;" horiz-adv-x="457" />
<glyph unicode="&#x20ac;" horiz-adv-x="786" d="M61 571v91h103v126h-103v91h103v323q0 121 56 186.5t196 65.5q248 0 248 -252v-158h-156v158q0 109 -92 109t-92 -109v-323h198l-20 -91h-178v-126h151l-18 -91h-133v-340q0 -109 92 -108.5t92 108.5v179h156v-179q0 -252 -248 -251q-139 0 -195.5 65.5t-56.5 185.5v340 h-103z" />
<glyph unicode="&#x2122;" horiz-adv-x="710" d="M82 1382v52h203v-52h-74v-358h-53v358h-76zM342 1024v410h57l76 -232l78 232h55v-410h-51v283l-65 -197h-31l-66 197v-283h-53z" />
<glyph unicode="&#x25fc;" horiz-adv-x="1024" d="M0 0v1024h1024v-1024h-1024z" />
</font>
</defs>
</svg>
